The Battleship Island 2017 Türkçe indir

The Battleship Island 2017 Türkçe indir
Sansürsüz Türkçe Full indir

The Battleship Island 1080p indir, The Battleship Island Türkçe Dublaj indir, Hashima Kömür Madeni 1080p Dual indir Film, Japon sömürge döneminde, yaklaşık 400 Korelinin kömür madenlerinde çalıştırmak amacıyla “Battleship Island (“Hashima Island”)” adlı bir savaş gemisi ile zorla götürülmesini ve gemidekilerin özgürlük için mücadele etmesini anlatmaktadır. tt5969696







Benzer Filmler

Sar Başa Sansürsüz Full İndir
Özgür Dünya Sansürsüz Full İndir
Ölümcül Sular – Crawl Türkçe Dublaj Full İndir
Sudan Daha Yoğun – Thicker Than Water Türkçe Dublaj Full İndir

Yorumlar

  1. Dr.Arhan dedi ki:

    Dual mi, sadece dublaj mı?

  2. Dr.Arhan dedi ki:

    Bunu indirmek 27 saat sürüyor. Eğer dual değilse uğraşmak istemiyorum yani. Keşke turbubit dışında indirme seçeneği sunsanız.

    • admin dedi ki:

      Ne yazık ki diğer indirme seçenekleri çok uğraştırıyor bu yüzden sadece turbobit ile çalışıyoruz.
      Yorumunuz için teşekkürler.

  3. Dr.Arhan dedi ki:

    Admin senden hayır yok. Ben paylaşayım dosya bilgilerini en iyisi. 🙂 Teşekkür ettim bu arada 😉

    Video
    ID : 1
    Format : HEVC
    Format/Info : High Efficiency Video Coding
    Format profile : Main 10@L5.1@High
    Codec ID : V_MPEGH/ISO/HEVC
    Duration : 2 h 12 min
    Bit rate : 5 201 kb/s
    Width : 1 920 pixels
    Height : 804 pixels
    Display aspect ratio : 2.40:1
    Frame rate mode : Constant
    Frame rate : 24.000 FPS
    Color space : YUV
    Chroma subsampling : 4:2:0
    Bit depth : 10 bits
    Bits/(Pixel*Frame) : 0.140
    Stream size : 4.80 GiB (86%)
    Writing library : x265 – H.265/HEVC codec
    Default : Yes
    Forced : No

    Audio #1
    ID : 2
    Format : AC-3
    Format/Info : Audio Coding 3
    Commercial name : Dolby Digital
    Codec ID : A_AC3
    Duration : 2 h 12 min
    Bit rate mode : Constant
    Bit rate : 192 kb/s
    Channel(s) : 2 channels
    Channel layout : L R
    Sampling rate : 48.0 kHz
    Frame rate : 31.250 FPS (1536 SPF)
    Bit depth : 16 bits
    Compression mode : Lossy
    Stream size : 182 MiB (3%)
    Language : Turkish
    Service kind : Complete Main
    Default : Yes
    Forced : No

    Audio #2
    ID : 3
    Format : AC-3
    Format/Info : Audio Coding 3
    Commercial name : Dolby Digital
    Codec ID : A_AC3
    Duration : 2 h 12 min
    Bit rate mode : Constant
    Bit rate : 640 kb/s
    Channel(s) : 6 channels
    Channel layout : L R C LFE Ls Rs
    Sampling rate : 48.0 kHz
    Frame rate : 31.250 FPS (1536 SPF)
    Bit depth : 16 bits
    Compression mode : Lossy
    Stream size : 605 MiB (11%)
    Language : Korean
    Service kind : Complete Main
    Default : No
    Forced : No

    Text #1
    ID : 4
    Format : UTF-8
    Codec ID : S_TEXT/UTF8
    Codec ID/Info : UTF-8 Plain Text
    Duration : 2 h 8 min
    Bit rate : 46 b/s
    Count of elements : 1188
    Stream size : 43.6 KiB (0%)
    Language : Turkish
    Default : No
    Forced : No

    Text #2
    ID : 5
    Format : UTF-8
    Codec ID : S_TEXT/UTF8
    Codec ID/Info : UTF-8 Plain Text
    Duration : 2 h 10 min
    Bit rate : 48 b/s
    Count of elements : 1681
    Stream size : 46.3 KiB (0%)
    Language : English
    Default : No
    Forced : No